#TITLE:over the rave;
#SUBTITLE:;
#ARTIST:Takoyaki;
#TITLETRANSLIT:;
#SUBTITLETRANSLIT:;
#ARTISTTRANSLIT:;
#CREDIT:;
#BANNER:over the rave_logo.jpg;
#BACKGROUND:over the rave_bg.jpg;
#LYRICSPATH:;
#CDTITLE:Lan.png;
#MUSIC:over the rave.mp3;
#OFFSET:0.000;
#SAMPLESTART:37.534;
#SAMPLELENGTH:12.000;
#SELECTABLE:YES;
#BPMS:0.000=159.940;
#STOPS:;
#BGCHANGES:;
// cache tags:
#FIRSTBEAT:4.000;
#LASTBEAT:282.000;
#SONGFILENAME:Songs/lan sky/over the rave/over the rave.sm;
#HASMUSIC:1;
#HASBANNER:1;
#MUSICLENGTH:110.828;
// end cache tags

//---------------dance-single - sky----------------
#NOTES:
     dance-single:
     sky:
     Hard:
     10:
     1.000,1.000,1.000,0.027,0.844,627.000,165.000,3.000,0.000,26.000:


0000
0000
0000
0000
,
0110
1100
1100
1100
,
0101
1010
1010
1010
,
0011
1100
1100
1100
,
1001
0000
0000
0000
0110
0000
0000
1000
0100
0010
0000
0000
0001
0010
0000
0000
,
1100
0101
1100
0110
,
1001
0000
0000
0000
0011
0000
0100
0000
1100
0000
0000
0000
0011
0100
0000
0000
,
1010
0110
0011
1010
,
0100
0001
1000
0010
0100
0001
0010
1000
0010
0001
0100
1000
0010
0001
0100
0010
,
1000
0000
1000
0000
1000
0000
1000
0000
0001
0010
0001
0010
0100
0010
1000
0000
,
0001
0000
0001
0000
0001
0000
0001
0000
1000
0010
0100
0010
0100
1000
0100
0000
,
0010
0000
0010
0000
0010
0000
0000
0010
0100
1000
0100
1000
0100
0010
0100
0000
,
0001
0000
0001
0000
0001
0000
0001
0000
0010
0100
1000
0100
1000
0100
0010
0000
,
0100
0000
0100
0000
0100
0000
0100
0000
0010
0001
0010
0001
0010
0100
1000
0000
,
0010
0000
0010
0000
0010
0000
0010
0000
1000
0100
0010
0100
1000
0010
0100
0000
,
0011
0000
0010
0000
0010
0000
0010
0000
0011
0100
1000
0100
0010
0100
1000
0000
,
2010
0001
0010
0001
0010
0001
0010
0001
0010
0001
0010
0001
0010
0001
0010
0001
,
3010
0000
0100
0000
1000
0000
0100
0000
1000
0000
0100
0010
0000
0010
0001
0010
,
0100
0000
1000
0010
1000
0010
1000
0010
1000
0000
0100
0000
0100
0000
0100
0000
,
1000
0000
0100
0000
0010
0000
0001
0000
0010
0000
0100
1000
0100
1000
0100
1000
,
0100
0000
0010
0001
0100
0001
0010
0001
1000
0100
0001
0100
0010
0001
1000
0001
,
0100
0000
1000
0000
0100
0000
0010
0000
0001
0000
0100
1000
0010
0100
0010
0100
,
1000
0000
0001
0010
0001
0010
0001
0010
0001
0000
0100
0000
0010
0000
0100
0000
,
1000
0000
0100
0000
0010
0000
0001
0000
1000
0000
0010
0100
0010
0100
0010
0100
,
0010
0000
1000
0100
0010
0100
1000
0001
0100
0010
0100
1000
0010
0001
0100
0010
,
1000
0000
0100
0000
0001
0000
0100
0000
1000
0000
0100
1000
0100
0010
0001
0010
,
1000
0000
0010
0100
0010
0100
0010
0100
0010
0000
1000
0000
0100
0000
1000
0000
,
0001
0000
0010
0000
0100
0000
1000
0000
0001
0000
0100
0010
0100
0010
0100
0010
,
0100
0000
0001
1000
0001
1000
0001
1000
0001
1000
0001
1000
0001
1000
0001
1000
,
0001
0000
0010
0000
0100
0000
1000
0000
0100
0000
0010
0100
0000
1000
0001
1000
,
0001
0000
0100
1000
0100
1000
0100
1000
0100
0000
0010
0000
0100
0000
1000
0000
,
0100
0000
0010
0000
0100
0000
1000
0000
0010
0000
0100
1000
0100
1000
0100
1000
,
0100
0000
0001
0100
0001
1000
0010
0001
0100
0010
0001
0100
1000
0010
0001
0100
,
1001
0000
0110
0000
,
1100
0110
0011
1001
,
0011
0110
1100
1001
,
0110
0000
1001
0000
,
1100
0000
0011
0000
,
1010
0101
0011
1010
,
0101
1010
1100
0101
,
0010
0001
0010
0001
0010
0001
0010
0001
0010
0001
0010
0001
0010
0001
0010
0001
,
2010
0110
0010
0011
,
0010
0000
0000
0000
0101
0000
0000
0010
0000
0010
0000
0000
0011
0100
0010
0100
,
3001
0000
0110
0000
1000
0100
1010
0000
,
0011
0000
0110
0000
1001
0110
0110
0110
,
1100
0101
0110
1100
,
0112
1010
1100
0110
,
1110
0010
1110
0010
,
1113
0000
1110
0000
1110
1110
1110
1110
,
1110
0110
1100
0011
,
1010
0000
0000
0000
0110
0000
1100
0000
0000
1100
0000
0000
1100
0000
1100
0000
,
1100
0011
0101
1010
,
0111
0000
0111
0000
0111
0111
0111
0111
,
0111
1100
0101
0110
,
1010
0000
0000
0000
0101
0000
1010
0000
0000
1010
0000
0000
0101
0000
0101
0000
,
0111
0011
0111
0011
,
0100
0001
1000
0010
0100
0001
0100
0010
1000
0001
0100
0001
0010
1000
0100
0001
,
1010
0000
0001
0000
1100
0000
0010
0000
0101
0000
0100
1000
0101
0010
0100
0010
,
0101
0000
0001
0010
1001
0010
0001
0010
1001
0000
0100
0000
0011
0000
0100
0000
,
1100
0000
0100
0000
0011
0000
0010
0000
1100
0000
0001
0010
0101
0010
0001
0010
,
1001
0000
0100
0010
1100
0010
0100
0010
0101
0010
0100
0010
1100
0010
0100
0010
,
0101
0000
0001
0000
1100
0000
0010
0000
1100
0000
0010
0100
0011
1000
0100
1000
,
0110
0000
0010
0001
0110
0001
0010
0001
1010
0000
1000
0000
0110
0000
0001
0000
,
0110
0000
0001
0000
1100
0000
0010
0000
1100
0000
1000
0010
1001
0010
1000
0010
,
1100
0000
1000
0100
1001
0100
1000
0100
1010
0100
1000
0100
1001
0100
1000
0100
,
1010
0000
0100
0000
0011
0000
0100
0000
1100
0000
0100
0010
1100
0001
0010
0001
,
0110
0000
0100
1000
0110
1000
0100
1000
0101
0000
0010
0000
0110
0000
1000
0000
,
0101
0000
0010
0000
0110
0000
1000
0000
0101
0000
0100
0010
1100
0010
0100
0010
,
0101
0000
1000
0100
0010
0100
0010
0001
0010
0100
1000
0100
0010
0100
0010
0001
,
0010
0100
1000
0100
1000
0100
0010
0100
0001
0010
0100
1000
0100
0010
0001
1000
,
0110
0110
0000
0110
0000
0110
0110
0000
0110
0000
0000
0000
0000
0000
0000
0000
;
